Aşk-ı Memnu Fan Sitesi

♥ Beren Saat [Aşkı Arayan Bir Aşk Hikayesi] Kıvanç Tatlıtuğ ♥

       Aşk-ı Memnu Fan SitesiHoşgeldiniz :Misafir
En son ziyaretiniz:


    Aşk-ı Memnu 28.Bölüm İndir [720*544][600MB-09.04.2009] + Caps

    Paylaş
    avatar
    !Berenist!
    Administrator_Kurucu
    Administrator_Kurucu

    ZodyakKoç Maymun

    Mesaj Sayısı Mesaj Sayısı : 2321
    Kayıt tarihi Kayıt tarihi : 12/03/09
    Yaş Yaş : 25
    Doğum tarihi Doğum tarihi : 10/04/92
    Nerden Nerden : Mersin
    İş/Hobiler İş/Hobiler : Öğrenci
    Lakap Lakap : Hilary
    Hangi Dizi Karekteri Hangi Dizi Karekteri :

    Konu İkonu Aşk-ı Memnu 28.Bölüm İndir [720*544][600MB-09.04.2009] + Caps

    Mesaj tarafından !Berenist! Bir Perş. Mayıs 14, 2009 4:48 pm












    Kod:
    General
    Complete name : Ask-I.Memnu.28.By.Dayicik.avi
    Format : AVI
    Format/Info : Audio Video Interleave
    File size : 600 MiB
    Duration : 1h 18mn
    Overall bit rate : 1 064 Kbps
    Writing application : VirtualDubMod 1.5.4.1 (build 2178/release)
    Writing library : VirtualDubMod build 2178/release

    Video
    Format : MPEG-4 Visual
    Format profile : Streaming Video@L1
    Format settings, BVOP : Yes
    Format settings, QPel : No
    Format settings, GMC : No warppoints
    Format settings, Matrix : Custom
    Codec ID : XVID
    Codec ID/Hint : XviD
    Duration : 1h 18mn
    Bit rate : 945 Kbps
    Width : 720 pixels
    Height : 544 pixels
    Display aspect ratio : 4/3
    Frame rate : 25.000 fps
    Resolution : 24 bits
    Colorimetry : 4:2:0
    Scan type : Progressive
    Bits/(Pixel*Frame) : 0.096
    Stream size : 533 MiB (89%)
    Writing library : XviD 50

    Audio
    Format : MPEG Audio
    Format version : Version 1
    Format profile : Layer 3
    Codec ID : 55
    Codec ID/Hint : MP3
    Duration : 1h 18mn
    Bit rate mode : Constant
    Bit rate : 112 Kbps
    Minimum bit rate : 112 Kbps
    Channel(s) : 2 channels
    Sampling rate : 44.1 KHz
    Resolution : 16 bits
    Stream size : 63.1 MiB (11%)
    Alignment : Split accross interleaves
    Interleave, duration : 80 ms (2.00 video frames)
    Interleave, preload duration : 500 ms
    Writing library : LAME3.98r
    Encoding settings : CBR



    rapidshare.com Ask-I.Memnu.28.By.Dayicik.part1.rar
    rapidshare.com Ask-I.Memnu.28.By.Dayicik.part2.rar
    rapidshare.com Ask-I.Memnu.28.By.Dayicik.part3.rar
    rapidshare.com Ask-I.Memnu.28.By.Dayicik.part4.rar
    rapidshare.com Ask-I.Memnu.28.By.Dayicik.part5.rar
    rapidshare.com Ask-I.Memnu.28.By.Dayicik.part6.rar


    _________________




    "..Gözlerin, dudakların alev alev çağırıyor yangınlara.
    Öyle birşey varki sende çözemediğim,
    İnsanı çılgınlıklara sürüklüyor.."

    Lav yu Elifim Sad




      Forum Saati C.tesi Ara. 16, 2017 6:45 pm